#TITLE:Scream Aim and Fire;
#SUBTITLE:;
#ARTIST:Bullet For My Valentine;
#TITLETRANSLIT:;
#SUBTITLETRANSLIT:;
#ARTISTTRANSLIT:;
#CREDIT:;
#BANNER:BN.jpg;
#BACKGROUND:BG.jpg;
#LYRICSPATH:;
#CDTITLE:esm09CD.png;
#MUSIC:Bullet For My Valentine - Scream Aim and Fire.mp3;
#OFFSET:0.720;
#SAMPLESTART:67.840;
#SAMPLELENGTH:16.000;
#SELECTABLE:YES;
#BPMS:0.000=203.000,508.000=193.000,580.000=203.000,804.000=193.000,876.000=203.000;
#STOPS:;
#BGCHANGES:;
// cache tags:
#FIRSTBEAT:4.000;
#LASTBEAT:884.500;
#SONGFILENAME:Songs/Music V.I.P ^_^/(eastsideman09) Scream Aim and Fire/Bullet For My Valentine - Scream Aim and Fire.sm;
#HASMUSIC:1;
#HASBANNER:1;
#MUSICLENGTH:268.486;
// end cache tags

//---------------dance-single - ----------------
#NOTES:
     dance-single:
     :
     Challenge:
     13:
     1.000,1.000,1.000,1.000,1.000,1860.000,560.000,344.000,221.000,214.000:
0000
0000
0000
0000
,
1100
0000
0010
0000
0100
0000
0010
0000
0100
0000
0010
0000
1100
0000
0010
0000
0100
0000
0010
0000
0100
0000
0010
0000
0001
0100
1000
0000
0001
0000
1000
0000
,
0010
0100
0001
0000
0010
0000
0001
0000
0100
1000
0010
0000
0100
0000
0010
0000
1000
0001
0100
0000
1000
0000
0100
0000
0011
0000
0000
0000
0000
0000
0000
0000
,
1010
0000
0100
0000
0100
0000
0110
0000
1010
0000
0100
0000
0010
0100
0010
0000
,
0010
0100
0010
0000
1100
0000
0110
0000
0011
0000
0110
0000
0101
0000
1001
0000
,
1100
0000
0100
0010
0100
0000
0110
0000
1100
0000
0100
0000
0010
0100
0010
0000
,
1010
0000
0101
0000
1010
0000
0001
0000
0210
0001
1000
0000
0010
0000
1000
0000
0312
0000
0100
0000
0010
0000
0100
0000
1010
0000
0100
0000
1010
0000
0100
0000
,
1003
0010
1000
0010
1000
0010
1000
0010
0100
0010
0100
0010
0100
0010
0100
0010
,
0100
0001
0100
0001
0100
0001
0100
0001
0010
0001
0010
0001
0010
0001
0010
0001
,
1000
0010
1000
0010
1000
0010
1000
0010
0100
0010
0100
0010
0100
0010
0100
0010
,
1001
0100
1001
0100
1001
0100
1001
0100
1010
0100
1010
0100
1010
0100
1010
0100
,
1012
0000
0100
0000
0100
0000
0110
0000
1013
0000
0100
0000
0010
0100
0010
0000
,
0010
0100
0010
0000
1100
0000
0110
0000
0011
0000
0110
0000
0101
0000
1001
0000
,
1100
0000
0100
0010
0100
0000
0110
0000
1100
0000
0100
0000
0010
0100
0010
0000
,
1010
0000
0101
0000
1010
0000
0001
0000
0210
0001
1000
0000
0010
0000
1000
0000
0312
0000
0100
0000
0010
0000
0100
0000
1010
0000
0100
0000
1010
0000
0100
0000
,
1003
0010
1000
0010
1000
0010
1000
0010
0100
0010
0100
0010
0100
0010
0100
0010
,
0100
0001
0100
0001
0100
0001
0100
0001
0010
0001
0010
0001
0010
0001
0010
0001
,
1000
0010
1000
0010
1000
0010
1000
0010
0100
0010
0100
0010
0100
0010
0100
0010
,
1001
0100
1001
0100
1001
0100
1001
0100
1010
0100
1010
0100
1010
0100
1010
0100
,
2012
0000
0010
0000
0103
0100
0010
0100
,
0000
0100
0010
0000
0100
0100
0010
0000
,
3112
0000
1000
0000
0010
0000
1000
0000
0010
0000
1000
0000
0110
0000
1000
0000
0010
0000
1000
0000
0010
0000
1000
0000
0010
0100
1000
0000
0010
0000
0100
0000
,
0010
1000
0100
0000
0010
0000
0100
0000
0010
0100
1000
0000
0010
0000
1000
0000
0010
1000
0100
0000
0010
0000
0100
0000
1010
0000
0000
0000
0000
0000
0000
0000
,
1103
0100
0100
0100
1100
0100
0100
0120
,
0030
0000
0100
0000
0100
0010
0100
0000
0100
0010
0100
0000
0100
0000
1200
0000
,
0300
0000
0100
0000
0100
0010
0100
0000
0100
0010
0100
0000
0100
0000
2100
0000
,
0000
3100
0020
0230
0302
0000
0000
0223
,
0330
0000
0010
0000
0010
0100
0010
0000
0010
0100
0010
0000
0010
0000
0220
0000
,
0330
0000
0010
0000
0010
0100
0010
0000
0010
0100
0010
0000
0010
0000
2010
0000
,
0000
0000
0000
0000
0000
0000
0000
0200
,
0020
0000
0000
0000
0030
0000
0300
0202
,
3303
0000
0100
0000
0100
0010
0100
0000
0100
0010
0100
0000
0100
0000
0120
0000
,
0030
0000
0100
0000
0100
0010
0100
0000
0100
0010
0100
0000
0100
0000
1200
0000
,
0300
0000
0100
0000
0100
0010
0100
0000
0100
0010
0100
0000
0100
0000
2100
0000
,
0000
3100
0020
0230
0302
0000
0000
0223
,
0330
0000
0010
0000
0010
0100
0010
0000
0010
0100
0010
0000
0010
0000
0220
0000
,
0330
0000
0010
0000
0010
0100
0010
0000
0010
0100
0010
0000
0010
0000
0220
0000
,
0000
0000
0000
0000
,
2001
0001
0001
0001
0001
0001
3331
1212
,
0303
1000
0101
0010
0001
0010
0101
1000
,
0001
0010
0101
0010
0000
2200
3310
2200
,
3300
1000
0101
0010
0001
0010
0101
1000
,
2201
0000
0010
3300
0221
0000
1330
0212
,
0303
1000
0101
0010
0001
0010
0101
1000
,
0001
0010
0101
0010
0000
2200
3310
2200
,
3300
0000
1000
0000
0101
0000
0010
0000
0001
0000
0010
0010
0101
0000
1000
0000
,
2201
0000
0000
3300
0221
0000
0330
0212
,
0303
1000
0101
0010
0001
0010
0101
1000
,
0001
0000
0010
0000
0101
0000
0010
0000
0001
0001
2210
0000
3300
0000
2210
0000
,
3300
1000
0101
0010
0001
0010
0101
1000
,
2201
0000
0010
3300
0221
0000
1330
0212
,
0303
1000
0101
0010
0001
0010
0101
1000
,
0001
0000
0010
0000
0101
0000
0010
0000
0001
0001
2210
0000
3300
0000
2210
0000
,
3300
1000
0101
0010
0001
0010
0101
1000
,
2210
0000
0000
3300
0221
0000
0000
0330
,
1010
0000
0100
0000
0100
0000
0110
0000
1010
0000
0100
0000
0010
0100
0010
0000
,
0010
0100
0010
0000
1100
0000
0110
0000
0011
0000
0110
0000
0101
0000
1001
0000
,
1100
0000
0100
0010
0100
0000
0110
0000
1100
0000
0100
0000
0010
0100
0010
0000
,
1010
0000
0101
0000
1010
0000
0001
0000
0210
0001
1000
0000
0010
0000
1000
0000
0312
0000
0100
0000
0010
0000
0100
0000
1010
0000
0100
0000
1013
0000
0100
0000
,
0011
0100
0010
0100
0010
0100
0011
0100
0010
0100
0010
0100
0011
0100
0010
0100
,
0010
0100
0010
0100
0010
0100
0010
0100
0011
0100
0010
0100
0011
0100
0010
0100
,
2020
0000
0000
0000
,
3231
0010
0001
0010
1000
0010
1000
0010
1000
0001
1000
0001
0010
0001
0010
0001
,
1310
0000
0100
0000
0100
0000
0110
0000
1010
0000
0100
0000
0010
0100
0010
0000
,
0010
0100
0010
0000
1100
0000
0110
0000
0011
0000
0110
0000
0101
0000
1001
0000
,
1100
0000
0100
0010
0100
0000
0110
0000
1100
0000
0100
0000
0010
0100
0010
0000
,
1010
0000
0101
0000
1010
0000
0001
0000
0210
0001
1000
0000
0010
0000
1000
0000
0312
0000
0100
0000
0010
0000
0100
0000
1010
0000
0100
0000
1013
0000
0100
0000
,
0011
0100
0010
0100
0010
0100
0011
0100
0010
0100
0010
0100
0011
0100
0010
0100
,
0010
0100
0010
0100
0010
0100
0010
0100
0011
0100
0010
0100
0011
0100
0010
0100
,
2020
0000
0000
0000
,
3231
0010
0001
0010
1000
0010
1000
0010
1000
0001
1000
0001
0010
0001
0010
0001
,
2310
0000
0010
0000
0100
0100
0010
0100
,
0000
0100
0010
0000
0100
0100
0010
0000
,
3112
0000
1000
0000
0010
0000
1000
0000
0010
0000
1000
0000
0110
0000
1000
0000
0010
0000
1000
0000
0010
0000
1000
0000
0010
0100
1000
0000
0010
0000
0100
0000
,
0010
1000
0100
0000
0010
0000
0100
0000
0010
0100
1000
0000
0010
0000
1000
0000
0010
1000
0100
0000
0010
0000
0100
0000
1010
0000
0000
0000
0000
0000
0000
0000
,
1103
0100
0100
0100
1100
0100
0100
0120
,
0030
0000
0100
0000
0100
0010
0100
0000
0100
0010
0100
0000
0100
0000
1200
0000
,
0300
0000
0100
0000
0100
0010
0100
0000
0100
0010
0100
0000
0100
0000
2100
0000
,
0000
3100
0020
0230
0302
0000
0000
0223
,
0330
0000
0010
0000
0010
0100
0010
0000
0010
0100
0010
0000
0010
0000
0220
0000
,
0330
0000
0010
0000
0010
0100
0010
0000
0010
0100
0010
0000
0010
0000
2010
0000
,
0000
0000
0000
0000
0000
0000
0000
0200
,
0020
0000
0000
0000
0030
0000
0300
0202
,
3303
0000
0100
0000
0100
0010
0100
0000
0100
0010
0100
0000
0100
0000
0120
0000
,
0030
0000
0100
0000
0100
0010
0100
0000
0100
0010
0100
0000
0100
0000
1200
0000
,
0300
0000
0100
0000
0100
0010
0100
0000
0100
0010
0100
0000
0100
0000
2100
0000
,
0000
3100
0020
0230
0302
0000
0000
0223
,
0330
0000
0010
0000
0010
0100
0010
0000
0010
0100
0010
0000
0010
0000
0220
0000
,
0330
0000
0010
0000
0010
0100
0010
0000
0010
0100
0010
0000
0010
0000
0220
0000
,
0000
0000
0000
0000
,
2001
0001
0001
0001
0001
0001
3331
1212
,
0303
1000
0101
0010
0001
0010
0101
1000
,
0001
0010
0101
0010
0000
2200
3310
2200
,
3300
1000
0101
0010
0001
0010
0101
1000
,
2201
0000
0010
3300
0221
0000
1330
0212
,
0303
1000
0101
0010
0001
0010
0101
1000
,
0001
0010
0101
0010
0000
2200
3310
2200
,
3300
0000
1000
0000
0101
0000
0010
0000
0001
0000
0010
0010
0101
0000
1000
0000
,
2201
0000
0000
3300
0221
0000
0330
0212
,
0303
1000
0101
0010
0001
0010
0101
1000
,
0001
0000
0010
0000
0101
0000
0010
0000
0001
0001
2210
0000
3300
0000
2210
0000
,
3300
1000
0101
0010
0001
0010
0101
1000
,
2201
0000
0010
3300
0221
0000
1330
0212
,
0303
1000
0101
0010
0001
0010
0101
1000
,
0001
0000
0010
0000
0101
0000
0010
0000
0001
0001
2210
0000
3300
0000
2210
0000
,
3300
1000
0101
0010
0001
0010
0101
1000
,
2210
0000
0000
3300
0221
0000
0000
0330
,
1010
0000
0100
0000
0100
0000
0110
0000
1010
0000
0100
0000
0010
0100
0010
0000
,
0010
0100
0010
0000
1100
0000
0110
0000
0011
0000
0110
0000
0101
0000
1001
0000
,
1100
0000
0100
0010
0100
0000
0110
0000
1100
0000
0100
0000
0010
0100
0010
0000
,
1010
0000
0101
0000
1010
0000
0001
0000
0210
0001
1000
0000
0010
0000
1000
0000
0312
0000
0100
0000
0010
0000
0100
0000
1010
0000
0100
0000
1013
0000
0100
0000
,
0011
0100
0010
0100
0010
0100
0011
0100
0010
0100
0010
0100
0011
0100
0010
0100
,
0010
0100
0010
0100
0010
0100
0010
0100
0011
0100
0010
0100
0011
0100
0010
0100
,
2020
0000
0000
0000
,
3231
0010
0001
0010
1000
0010
1000
0010
1000
0001
1000
0001
0010
0001
0010
0001
,
1310
0000
0100
0000
0100
0000
0110
0000
1010
0000
0100
0000
0010
0100
0010
0000
,
0010
0100
0010
0000
1100
0000
0110
0000
0011
0000
0110
0000
0101
0000
1001
0000
,
1100
0000
0100
0010
0100
0000
0110
0000
1100
0000
0100
0000
0010
0100
0010
0000
,
1010
0000
0101
0000
1010
0000
0001
0000
0210
0001
1000
0000
0010
0000
1000
0000
0312
0000
0100
0000
0010
0000
0100
0000
1010
0000
0100
0000
1013
0000
0100
0000
,
0011
0100
0010
0100
0010
0100
0011
0100
0010
0100
0010
0100
0011
0100
0010
0100
,
0010
0100
0010
0100
0010
0100
0010
0100
0011
0100
0010
0100
0011
0100
0010
0100
,
2020
0000
0000
0000
,
3231
0010
0001
0010
1000
0010
1000
0010
1000
0001
1000
0001
0010
0001
0010
0001
,
2310
0000
0010
0000
0100
0100
0010
0100
,
0000
0100
0010
0000
0100
0100
0010
0000
,
3112
0000
1000
0000
0010
0000
1000
0000
0010
0000
1000
0000
0110
0000
1000
0000
0010
0000
1000
0000
0010
0000
1000
0000
0010
0100
1000
0000
0010
0000
0100
0000
,
0010
1000
0100
0000
0010
0000
0100
0000
0010
0100
1000
0000
0010
0000
1000
0000
0010
1000
0100
0000
0010
0000
0100
0000
1010
0000
0000
0000
0000
0000
0000
0000
,
1113
11M0
1100
0000
1111
11MM
0000
1100
,
1110
00M0
1100
1100
0011
11MM
1100
0000
,
1110
11M0
0000
1100
1111
00MM
1100
1100
,
0010
11M0
2200
0000
3311
MMMM
0000
0000
,
0010
11M0
1100
0000
1111
11MM
0000
1100
,
1110
00M0
1100
1100
0011
11MM
1100
0000
,
1110
11M0
0000
1100
1111
00MM
1100
1100
,
0010
11M0
2020
3030
M221
000M
0000
0330
,
0221
000M
0000
0330
1110
22M0
3300
1100
,
2211
33MM
1100
2200
3310
11M0
2200
3300
,
1111
22MM
3300
1100
2210
33M0
1100
2200
,
3311
11MM
2200
3300
1110
22M0
3300
1100
,
1122
MM00
0000
0000
1033
11MM
2200
3300
,
1111
22MM
3300
1100
2210
33M0
1100
2200
,
3311
11MM
2200
3300
1110
22M0
3300
1100
,
2211
33MM
1100
2200
3310
11M0
2020
3030
,
M221
000M
0000
0330
0221
000M
0000
0330
,
12M2
M000
0000
0303
1M22
M000
0000
0033
,
2200
0000
0000
0000
0000
0000
0000
3300
,
0220
0000
0000
0000
0000
0000
0000
0330
,
0010
1000
0100
1000
0010
1000
0100
1000
0001
1000
0100
1000
0001
1000
0100
1000
,
0010
1000
0100
1000
0010
1000
0100
1000
0001
1000
0100
1000
0001
1000
0100
1000
,
0022
0000
0000
0000
,
0230
0000
0000
0000
0000
0000
0000
0000
0000
0000
0000
0000
0303
0000
0010
0100
,
1000
0010
0001
0100
1000
0001
1000
0010
0001
0100
1000
0001
,
0100
0000
0000
0000
0010
0000
0000
0000
0001
0000
0000
0000
1000
0000
0000
0000
0010
0000
0000
0000
0001
0000
0000
0000
0100
0000
0000
0000
0010
0000
0000
0000
0001
0000
0000
0000
1000
0000
0000
0010
0000
0000
0200
0000
0000
0000
0000
0000
,
0000
0310
1000
0010
0100
0020
0000
0230
,
0000
0301
0010
0100
2000
0000
0000
3200
,
0000
0310
1000
0010
0100
0010
1000
0010
,
0001
0100
0001
0010
0002
0000
0000
0000
,
1003
0000
0100
0000
0010
0000
1000
0000
0100
0000
0010
0000
1000
0000
0100
0000
0010
0000
1000
0000
0100
0000
0010
0000
1000
0000
0100
0000
0010
0000
1000
0000
0100
0000
0010
0000
0002
0000
0000
0000
0000
0000
0000
0000
0000
0003
1000
0000
,
0100
0010
1000
0100
0010
1000
0100
0010
1000
0100
0010
1000
0100
0010
1000
0100
0010
0001
0100
0010
1000
0100
0010
0001
,
0100
1000
0010
1000
0100
0010
1000
0100
0001
1000
0010
0001
,
0100
0010
0001
0010
0100
1000
0020
0000
0000
0000
0000
0000
,
0230
0000
0001
0010
0001
0010
0000
1000
,
0001
0010
0001
0010
0300
2201
3300
2201
,
3300
1000
0101
0010
1001
1010
0101
1000
,
2201
0001
0010
3300
0221
0001
1330
0202
,
0303
1000
0101
0010
1001
1010
0100
1000
,
0101
0110
1001
0010
0001
2201
3310
2201
,
3300
1000
0101
0010
1001
1010
0101
1000
,
2200
0010
0000
0000
0001
0000
0000
0000
0010
0000
0000
0000
3301
0000
0000
0000
1220
0000
0000
0000
0001
0000
0000
0000
1330
0000
0000
0000
0212
0000
0000
0000
,
0303
1000
0101
0010
0001
0010
0101
1000
,
0001
0000
0010
0000
0101
0000
0010
0000
0001
0001
2210
0000
3300
0000
2210
0000
,
3300
1000
0101
0010
0001
0010
0101
1000
,
2201
0000
0010
3300
0221
0000
1330
0212
,
0303
1000
0101
0010
0001
0010
0101
1000
,
0001
0000
0010
0000
0101
0000
0010
0000
0001
0001
2210
0000
3300
0000
2210
0000
,
3300
1000
0101
0010
0001
0010
0101
1000
,
2210
0000
0000
3300
0221
0000
0000
0330
,
1010
0000
0100
0000
0100
0000
0110
0000
1010
0000
0100
0000
0010
0100
0010
0000
,
0010
0100
0010
0000
1100
0000
0110
0000
0011
0000
0110
0000
0101
0000
1001
0000
,
1100
0000
0100
0010
0100
0000
0110
0000
1100
0000
0100
0000
0010
0100
0010
0000
,
1010
0000
0101
0000
1010
0000
0001
0000
0210
0001
1000
0000
0010
0000
1000
0000
0312
0000
0100
0000
0010
0000
0100
0000
1010
0000
0100
0000
1013
0000
0100
0000
,
0011
0100
0010
0100
0010
0100
0011
0100
0010
0100
0010
0100
0011
0100
0010
0100
,
0010
0100
0010
0100
0010
0100
0010
0100
0011
0100
0010
0100
0011
0100
0010
0100
,
2010
0000
0000
0000
,
3201
0010
0001
0010
1000
0010
1000
0010
1000
0001
1000
0001
0010
0001
0010
0001
,
1310
0000
0100
0000
0100
0000
0110
0000
1010
0000
0100
0000
0010
0100
0010
0000
,
0010
0100
0010
0000
1100
0000
0110
0000
0011
0000
0110
0000
0101
0000
1001
0000
,
1100
0000
0100
0010
0100
0000
0110
0000
1100
0000
0100
0000
0010
0100
0010
0000
,
1010
0000
0101
0000
1010
0000
0001
0000
0210
0001
1000
0000
0010
0000
1000
0000
0312
0000
0100
0000
0010
0000
0100
0000
1010
0000
0100
0000
1013
0000
0100
0000
,
0011
0100
0010
0100
0010
0100
0011
0100
0010
0100
0010
0100
0011
0100
0010
0100
,
0010
0100
0010
0100
0010
0100
0010
0100
0011
0100
0010
0100
0011
0100
0010
0100
,
2010
0000
0000
0000
,
3201
0010
0001
0010
1000
0010
1000
0010
1000
0001
1000
0001
0010
0001
0010
0001
,
2310
0000
000M
0M00
00M0
000M
0M00
00M0
0M00
000M
00M0
0M00
000M
00M0
000M
0M00
,
00M0
0M00
00M0
000M
0M00
00M0
0M00
000M
00M0
000M
00M0
000M
0M00
00M0
0M00
000M
,
00M0
000M
00M0
0M00
00M0
000M
00M0
0M00
00M0
000M
0M00
00M0
0M00
000M
00M0
000M
,
0M00
00M0
0M00
00M0
000M
00M0
000M
0M00
00M0
0M00
00M0
000M
00M0
000M
00M0
0M00
,
00M0
000M
00M0
0M00
000M
00M0
0M00
000M
00M0
000M
00M0
0M00
00M0
000M
00M0
0M00
,
000M
00M0
000M
00M0
0M00
00M0
000M
00M0
000M
0M00
00M0
0M00
00M0
000M
00M0
0M00
,
000M
0000
0000
00M0
0000
0000
000M
0000
0000
0M00
0000
0000
00M0
0000
0000
0M00
0000
0000
00M0
0000
0000
000M
0000
0000
0M00
0000
0000
000M
0000
0000
00M0
0000
0000
000M
0000
0000
0M00
0000
0000
0000
0000
0000
0001
0010
0000
0000
0000
0000
,
0000
0000
0000
0000
0000
0000
0010
0001
0000
0000
0000
0000
0100
0000
0000
0010
0000
0000
0100
0000
0000
0010
0000
0000
3102
0000
0000
0000
0000
0000
0000
0000
0000
0000
0000
0000
0000
0000
0000
0000
0000
0000
0000
0000
0000
0000
0000
0000
,
1113
11M0
1100
0000
1111
11MM
0000
1100
,
1110
00M0
1100
1100
0011
11MM
1100
0000
,
1110
11M0
0000
1100
1111
00MM
1100
1100
,
0010
11M0
2200
0000
3311
MMMM
0000
0000
,
0010
11M0
1100
0000
1111
11MM
0000
1100
,
1110
00M0
1100
1100
0011
11MM
1100
0000
,
1110
11M0
0000
1100
1111
00MM
1100
1100
,
0010
11M0
2020
3030
M221
000M
0000
0330
,
0221
000M
0000
0330
1110
22M0
3300
1100
,
2211
33MM
1100
2200
3310
11M0
2200
3300
,
1111
22MM
3300
1100
2210
33M0
1100
2200
,
3311
11MM
2200
3300
1110
22M0
3300
1100
,
1122
MM00
0000
0000
1033
11MM
2200
3300
,
1111
22MM
3300
1100
2210
33M0
1100
2200
,
3311
11MM
2200
3300
1110
22M0
3300
1100
,
2211
33MM
1100
2200
3310
11M0
2020
3030
,
M221
000M
0000
0330
0221
000M
0000
0330
,
12M2
M000
0000
0303
1M22
M000
0000
0033
,
2200
3300
0000
0000
0000
0000
0000
0000
0000
0000
0000
0000
0010
0000
0000
0000
0000
0000
0000
0000
0000
0000
0000
0000
0100
0000
0000
0000
0000
0000
0000
0000
0000
0000
0000
0000
0010
0000
0000
0000
0000
0000
0000
0000
0000
0000
0000
0000
0100
0000
0000
0000
0000
0000
0000
0000
0000
0000
0000
0000
0010
0000
0000
0000
0000
0000
0000
0000
0000
0000
0000
0000
1100
0000
0000
0000
0000
0000
0000
0000
0000
0000
0000
0000
0010
0000
0000
0000
0000
0000
0000
0000
0000
0000
0000
0000
0100
0000
0000
0000
0000
0000
0000
0000
0000
0000
0000
0000
0010
0000
0000
0000
0000
0000
0000
0000
0000
0000
0000
0000
0100
0000
0000
0000
0000
0000
0000
0000
0000
0000
0000
0000
0010
0000
0000
0000
0000
0000
0000
0000
0000
0000
0000
0000
0001
0000
0000
0000
0000
0000
0100
0000
0000
0000
0000
0000
1000
0000
0000
0000
0000
0000
0000
0000
0000
0000
0000
0000
0001
0000
0000
0000
0000
0000
0000
0000
0000
0000
0000
0000
1000
0000
0000
0000
0000
0000
0000
0000
0000
0000
0000
0000
,
0010
0100
0001
0000
0010
0000
0001
0000
0100
1000
0010
0000
0100
0000
0010
0000
1000
0001
0100
0000
1000
0000
0100
0000
0010
0001
0100
0000
0010
0000
0100
0000
,
0010
2201
3300
0000
0000
0000
0000
0000
0000
0000
0000
0000
0000
0000
0000
0000
;

//---------------dance-single - ----------------
#NOTES:
     dance-single:
     :
     Hard:
     10:
     1.000,1.000,1.000,1.000,0.633,1423.000,406.000,346.000,0.000,40.000:
0000
0000
0000
0000
,
0100
0010
0100
0010
0100
1000
0100
0010
0100
0010
0100
1000
0100
0001
0100
0001
,
0010
0100
0010
0100
1000
0001
1000
0001
0100
0001
0100
0001
0010
0000
0000
0000
,
1010
0000
0100
0000
0100
0000
0110
0000
1010
0000
0100
0000
0010
0100
0010
0000
,
0010
0100
0010
0000
1100
0000
0110
0000
0011
0000
0110
0000
0101
0000
1001
0000
,
1100
0000
0100
0010
0100
0000
0110
0000
1100
0000
0100
0000
0010
0100
0010
0000
,
0010
0100
0010
0000
0210
0000
0000
0000
0312
0000
0000
0000
0000
0000
0000
0000
,
1003
0010
1000
0010
1000
0010
1000
0010
0100
0010
0100
0010
0100
0010
0100
0010
,
0100
0001
0100
0001
0100
0001
0100
0001
0010
0001
0010
0001
0010
0001
0010
0001
,
1000
0010
1000
0010
1000
0010
1000
0010
0100
0010
0100
0010
0100
0010
0100
0010
,
0001
0100
0001
0100
0001
0100
0001
0100
0010
0100
0010
0100
0010
0100
0010
0100
,
1012
0000
0100
0000
0100
0000
0110
0000
1013
0000
0100
0000
0010
0100
0010
0000
,
0010
0100
0010
0000
1100
0000
0110
0000
0011
0000
0110
0000
0101
0000
1001
0000
,
1100
0000
0100
0010
0100
0000
0110
0000
1100
0000
0100
0000
0010
0100
0010
0000
,
0010
0100
0010
0000
0210
0000
0000
0000
0312
0000
0000
0000
0000
0000
0000
0000
,
1003
0010
1000
0010
1000
0010
1000
0010
0100
0010
0100
0010
0100
0010
0100
0010
,
0100
0001
0100
0001
0100
0001
0100
0001
0010
0001
0010
0001
0010
0001
0010
0001
,
1000
0010
1000
0010
1000
0010
1000
0010
0100
0010
0100
0010
0100
0010
0100
0010
,
0001
0100
0001
0100
0001
0100
0001
0100
0010
0100
0010
0100
0010
0100
0010
0100
,
2002
0000
0003
0000
,
0000
0000
0000
0000
,
3022
0000
0000
0000
,
0000
0000
0000
0000
,
1133
0100
0100
0100
1100
0100
0100
0120
,
0030
0000
0100
0000
0100
0010
0100
0000
0100
0010
0100
0000
0100
0000
1200
0000
,
0300
0000
0100
0000
0100
0010
0100
0000
0100
0010
0100
0000
0100
0000
2100
0000
,
0000
3100
0020
0230
0302
0000
0000
0223
,
0330
0000
0010
0000
0010
0100
0010
0000
0010
0100
0010
0000
0010
0000
0220
0000
,
0330
0000
0010
0000
0010
0100
0010
0000
0010
0100
0010
0000
0010
0000
2010
0000
,
0000
0000
0000
0000
0000
0000
0000
0200
,
0020
0000
0000
0000
0030
0000
0300
0202
,
3303
0000
0100
0000
0100
0010
0100
0000
0100
0010
0100
0000
0100
0000
0120
0000
,
0030
0000
0100
0000
0100
0010
0100
0000
0100
0010
0100
0000
0100
0000
1200
0000
,
0300
0000
0100
0000
0100
0010
0100
0000
0100
0010
0100
0000
0100
0000
2100
0000
,
0000
3100
0020
0230
0302
0000
0000
0223
,
0330
0000
0010
0000
0010
0100
0010
0000
0010
0100
0010
0000
0010
0000
0220
0000
,
0330
0000
0010
0000
0010
0100
0010
0000
0010
0100
0010
0000
0010
0000
0220
0000
,
0000
0000
0000
0000
,
2000
0000
0000
0000
0000
0000
3330
0202
,
0000
0303
0001
0010
0001
0010
0000
1000
,
0001
0010
0001
0010
0000
2200
3300
2200
,
0000
3300
0001
0010
0001
0010
0100
1000
,
2200
0000
0000
3300
0220
0000
0330
0202
,
0000
0303
0001
0010
0001
0010
0000
1000
,
0001
0010
0001
0010
0000
2200
3300
2200
,
0000
3300
0001
0010
0001
0010
0100
1000
,
2200
0000
0000
3300
0220
0000
0330
0202
,
0000
0303
0001
0010
0001
0010
0000
1000
,
0001
0010
0001
0010
0000
2200
3300
2200
,
0000
3300
0001
0010
0001
0010
0100
1000
,
2200
0000
0000
3300
0220
0000
0330
0202
,
0000
0303
0001
0010
0001
0010
0000
1000
,
0001
0010
0001
0010
0000
2200
3300
2200
,
0000
3300
0001
0010
0001
0010
0100
1000
,
2200
0000
0000
3300
0220
0000
0000
0330
,
1010
0000
0100
0000
0100
0000
0110
0000
1010
0000
0100
0000
0010
0100
0010
0000
,
0010
0100
0010
0000
1100
0000
0110
0000
0011
0000
0110
0000
0101
0000
1001
0000
,
1100
0000
0100
0010
0100
0000
0110
0000
1100
0000
0100
0000
0010
0100
0010
0000
,
0010
0100
0010
0000
0210
0000
0000
0000
0312
0000
0000
0000
0000
0000
0003
0000
,
0011
0100
0010
0100
0010
0100
0011
0100
0010
0100
0010
0100
0011
0100
0010
0100
,
0010
0100
0010
0100
0010
0100
0010
0100
0011
0100
0010
0100
0011
0100
0010
0100
,
2020
0000
0000
0000
,
3200
0000
0000
0000
0000
0000
0000
0030
,
1310
0000
0100
0000
0100
0000
0110
0000
1010
0000
0100
0000
0010
0100
0010
0000
,
0010
0100
0010
0000
1100
0000
0110
0000
0011
0000
0110
0000
0101
0000
1001
0000
,
1100
0000
0100
0010
0100
0000
0110
0000
1100
0000
0100
0000
0010
0100
0010
0000
,
0010
0100
0010
0000
0210
0000
0000
0000
0312
0000
0000
0000
0000
0000
0003
0000
,
0011
0100
0010
0100
0010
0100
0011
0100
0010
0100
0010
0100
0011
0100
0010
0100
,
0010
0100
0010
0100
0010
0100
0010
0100
0011
0100
0010
0100
0011
0100
0010
0100
,
2020
0000
0000
0000
,
3200
0000
0000
0000
,
2330
0000
0000
0000
,
0000
0000
0000
0000
,
3002
0000
0000
0000
,
0000
0000
0000
0000
,
1103
0100
0100
0100
1100
0100
0100
0120
,
0030
0000
0100
0000
0100
0010
0100
0000
0100
0010
0100
0000
0100
0000
1200
0000
,
0300
0000
0100
0000
0100
0010
0100
0000
0100
0010
0100
0000
0100
0000
2100
0000
,
0000
3100
0020
0230
0302
0000
0000
0223
,
0330
0000
0010
0000
0010
0100
0010
0000
0010
0100
0010
0000
0010
0000
0220
0000
,
0330
0000
0010
0000
0010
0100
0010
0000
0010
0100
0010
0000
0010
0000
2010
0000
,
0000
0000
0000
0000
0000
0000
0000
0200
,
0020
0000
0000
0000
0030
0000
0300
0202
,
3303
0000
0100
0000
0100
0010
0100
0000
0100
0010
0100
0000
0100
0000
0120
0000
,
0030
0000
0100
0000
0100
0010
0100
0000
0100
0010
0100
0000
0100
0000
1200
0000
,
0300
0000
0100
0000
0100
0010
0100
0000
0100
0010
0100
0000
0100
0000
2100
0000
,
0000
3100
0020
0230
0302
0000
0000
0223
,
0330
0000
0010
0000
0010
0100
0010
0000
0010
0100
0010
0000
0010
0000
0220
0000
,
0330
0000
0010
0000
0010
0100
0010
0000
0010
0100
0010
0000
0010
0000
0220
0000
,
0000
0000
0000
0000
,
2000
0000
0000
0000
0000
0000
3330
0202
,
0000
0303
0001
0010
0001
0010
0000
1000
,
0001
0010
0001
0010
0000
2200
3300
2200
,
0000
3300
0001
0010
0001
0010
0100
1000
,
2200
0000
0000
3300
0220
0000
0330
0202
,
0000
0303
0001
0010
0001
0010
0000
1000
,
0001
0010
0001
0010
0000
2200
3300
2200
,
0000
3300
0001
0010
0001
0010
0100
1000
,
2200
0000
0000
3300
0220
0000
0330
0202
,
0000
0303
0001
0010
0001
0010
0000
1000
,
0001
0010
0001
0010
0000
2200
3300
2200
,
0000
3300
0001
0010
0001
0010
0100
1000
,
2200
0000
0000
3300
0220
0000
0330
0202
,
0000
0303
0001
0010
0001
0010
0000
1000
,
0001
0010
0001
0010
0000
2200
3300
2200
,
0000
3300
0001
0010
0001
0010
0100
1000
,
2200
0000
0000
3300
0220
0000
0000
0330
,
1010
0000
0100
0000
0100
0000
0110
0000
1010
0000
0100
0000
0010
0100
0010
0000
,
0010
0100
0010
0000
1100
0000
0110
0000
0011
0000
0110
0000
0101
0000
1001
0000
,
1100
0000
0100
0010
0100
0000
0110
0000
1100
0000
0100
0000
0010
0100
0010
0000
,
0010
0100
0010
0000
0210
0000
0000
0000
0312
0000
0000
0000
0000
0000
0003
0000
,
0011
0100
0010
0100
0010
0100
0011
0100
0010
0100
0010
0100
0011
0100
0010
0100
,
0010
0100
0010
0100
0010
0100
0010
0100
0011
0100
0010
0100
0011
0100
0010
0100
,
2020
0000
0000
0000
,
3200
0000
0000
0000
0000
0000
0000
0030
,
1310
0000
0100
0000
0100
0000
0110
0000
1010
0000
0100
0000
0010
0100
0010
0000
,
0010
0100
0010
0000
1100
0000
0110
0000
0011
0000
0110
0000
0101
0000
1001
0000
,
1100
0000
0100
0010
0100
0000
0110
0000
1100
0000
0100
0000
0010
0100
0010
0000
,
0010
0100
0010
0000
0210
0000
0000
0000
0312
0000
0000
0000
0000
0000
0003
0000
,
0011
0100
0010
0100
0010
0100
0011
0100
0010
0100
0010
0100
0011
0100
0010
0100
,
0010
0100
0010
0100
0010
0100
0010
0100
0011
0100
0010
0100
0011
0100
0010
0100
,
2020
0000
0000
0000
,
3200
0000
0000
0000
,
2330
0000
0000
0000
,
0000
0000
0000
0000
,
3002
0000
0000
0000
,
0000
0000
0000
0000
,
1103
1100
1100
0000
1100
1100
0000
1100
,
1100
0000
1100
1100
0000
1100
1100
0000
,
1100
1100
0000
1100
1100
0000
1100
1100
,
0000
1100
2200
0000
3300
0000
0000
0000
,
0000
1100
1100
0000
1100
1100
0000
1100
,
1100
0000
1100
1100
0000
1100
1100
0000
,
1100
1100
0000
1100
1100
0000
1100
1100
,
0000
1100
2020
3030
0220
0000
0000
0330
,
0220
0000
0000
0330
1100
2200
3300
1100
,
2200
3300
1100
2200
3300
1100
2200
3300
,
1100
2200
3300
1100
2200
3300
1100
2200
,
3300
1100
2200
3300
1100
2200
3300
1100
,
0022
0000
0000
0000
0033
1100
2200
3300
,
1100
2200
3300
1100
2200
3300
1100
2200
,
3300
1100
2200
3300
1100
2200
3300
1100
,
2200
3300
1100
2200
3300
1100
2020
3030
,
0220
0000
0000
0330
0220
0000
0000
0330
,
0202
0000
0000
0303
0022
0000
0000
0033
,
2200
0000
0000
0000
0000
0000
0000
3300
,
0220
0000
0000
0000
0000
0000
0000
0330
,
0010
1000
0100
1000
0010
1000
0100
1000
0001
1000
0100
1000
0001
1000
0100
1000
,
0010
1000
0100
1000
0010
1000
0100
1000
0001
1000
0100
1000
0001
1000
0100
1000
,
0022
0000
0000
0000
,
0230
0000
0000
0000
0000
0000
0000
0000
0000
0000
0000
0000
0303
0000
0010
0100
,
1000
0010
0001
0100
1000
0001
1000
0010
0001
0100
1000
0001
,
0100
0000
0000
0000
0010
0000
0000
0000
0001
0000
0000
0000
1000
0000
0000
0000
0010
0000
0000
0000
0001
0000
0000
0000
0100
0000
0000
0000
0010
0000
0000
0000
0001
0000
0000
0000
1000
0000
0000
0010
0000
0000
0200
0000
0000
0000
0000
0000
,
0000
0310
1000
0010
0100
0020
0000
0230
,
0000
0301
0010
0100
2000
0000
0000
3200
,
0000
0310
1000
0010
0100
0010
1000
0010
,
0001
0100
0001
0010
0002
0000
0000
0000
,
1003
0000
0100
0000
0010
0000
1000
0000
0100
0000
0010
0000
1000
0000
0100
0000
0010
0000
1000
0000
0100
0000
0010
0000
1000
0000
0100
0000
0010
0000
1000
0000
0100
0000
0010
0000
0002
0000
0000
0000
0000
0000
0000
0000
0000
0003
1000
0000
,
0100
0010
1000
0100
0010
1000
0100
0010
1000
0100
0010
1000
0100
0010
1000
0100
0010
0001
0100
0010
1000
0100
0010
0001
,
0100
1000
0010
1000
0100
0010
1000
0100
0001
1000
0010
0001
,
0100
0010
0001
0010
0100
1000
0020
0000
0000
0000
0000
0000
,
0230
0000
0001
0010
0001
0010
0000
1000
,
0001
0010
0001
0010
0300
2200
3300
2200
,
0000
3300
0001
0010
0001
0010
0100
1000
,
2200
0000
0000
3300
0220
0000
0330
0202
,
0000
0303
0001
0010
0001
0010
0000
1000
,
0001
0010
0001
0010
0000
2200
3300
2200
,
0000
3300
0001
0010
0001
0010
0100
1000
,
2200
0000
0000
3300
0220
0000
0330
0202
,
0000
0303
0001
0010
0001
0010
0000
1000
,
0001
0010
0001
0010
0000
2200
3300
2200
,
0000
3300
0001
0010
0001
0010
0100
1000
,
2200
0000
0000
3300
0220
0000
0330
0202
,
0000
0303
0001
0010
0001
0010
0000
1000
,
0001
0010
0001
0010
0000
2200
3300
2200
,
0000
3300
0001
0010
0001
0010
0100
1000
,
2200
0000
0000
3300
0220
0000
0000
0330
,
1010
0000
0100
0000
0100
0000
0110
0000
1010
0000
0100
0000
0010
0100
0010
0000
,
0010
0100
0010
0000
1100
0000
0110
0000
0011
0000
0110
0000
0101
0000
1001
0000
,
1100
0000
0100
0010
0100
0000
0110
0000
1100
0000
0100
0000
0010
0100
0010
0000
,
0010
0100
0010
0000
0210
0000
0000
0000
0312
0000
0000
0000
0000
0000
0003
0000
,
0011
0100
0010
0100
0010
0100
0011
0100
0010
0100
0010
0100
0011
0100
0010
0100
,
0010
0100
0010
0100
0010
0100
0010
0100
0011
0100
0010
0100
0011
0100
0010
0100
,
2020
0000
0000
0000
,
3200
0000
0000
0000
0000
0000
0000
0030
,
1310
0000
0100
0000
0100
0000
0110
0000
1010
0000
0100
0000
0010
0100
0010
0000
,
0010
0100
0010
0000
1100
0000
0110
0000
0011
0000
0110
0000
0101
0000
1001
0000
,
1100
0000
0100
0010
0100
0000
0110
0000
1100
0000
0100
0000
0010
0100
0010
0000
,
0010
0100
0010
0000
0210
0000
0000
0000
0312
0000
0000
0000
0000
0000
0003
0000
,
0011
0100
0010
0100
0010
0100
0011
0100
0010
0100
0010
0100
0011
0100
0010
0100
,
0010
0100
0010
0100
0010
0100
0010
0100
0011
0100
0010
0100
0011
0100
0010
0100
,
2020
0000
0000
0000
,
3200
0000
0000
0000
,
2330
0000
0000
0000
,
0000
0000
0000
0000
,
0000
0000
0000
0000
,
0000
0000
0000
0000
,
0000
0000
0000
0000
,
0000
0000
0000
0000
,
0000
0000
0000
0000
,
0000
0000
3022
0000
,
1133
1100
1100
0000
1100
1100
0000
1100
,
1100
0000
1100
1100
0000
1100
1100
0000
,
1100
1100
0000
1100
1100
0000
1100
1100
,
0000
1100
2200
0000
3300
0000
0000
0000
,
0000
1100
1100
0000
1100
1100
0000
1100
,
1100
0000
1100
1100
0000
1100
1100
0000
,
1100
1100
0000
1100
1100
0000
1100
1100
,
0000
1100
2020
3030
0220
0000
0000
0330
,
0220
0000
0000
0330
1100
2200
3300
1100
,
2200
3300
1100
2200
3300
1100
2200
3300
,
1100
2200
3300
1100
2200
3300
1100
2200
,
3300
1100
2200
3300
1100
2200
3300
1100
,
0022
0000
0000
0000
0033
1100
2200
3300
,
1100
2200
3300
1100
2200
3300
1100
2200
,
3300
1100
2200
3300
1100
2200
3300
1100
,
2200
3300
1100
2200
3300
1100
2020
3030
,
0220
0000
0000
0330
0220
0000
0000
0330
,
0202
0000
0000
0303
0022
0000
0000
0033
,
0100
0010
0100
0010
0100
1000
0100
0010
0100
0010
0100
1000
0100
0001
0100
0001
,
0010
0100
0010
0100
1000
0001
1000
0001
0100
0001
0100
0001
0010
0100
0010
0100
,
0010
2200
3300
0000
0000
0000
0000
0000
0000
0000
0000
0000
0000
0000
0000
0000
;

//---------------dance-single - ----------------
#NOTES:
     dance-single:
     :
     Easy:
     1:
     0.000,0.000,0.000,0.000,0.000,0.000,0.000,0.000,0.000,0.000:  // measure 1
0000
0000
0000
0000
;
